当前位置:网站首页 > 影音资源 > 剧集 > 正文

[电视剧] 狐妖小红娘·月红篇[全36集][国语音轨/简繁英字幕].2024.2160p.WEB-DL.H265.DDP5.1.Atmos-ColorWEB

作者:CC下载站 日期:2024-06-14 12:33:31 浏览:90 分类:剧集

[电视剧] 狐妖小红娘·月红篇[全36集][国语音轨/简繁英字幕].2024.2160p.WEB-DL.H265.DDP5.1.Atmos-ColorWEB


◎标  题 狐妖小红娘·月红篇
◎译  名 狐妖小红娘网剧 / 涂山小红娘 / Fox Spirit Matchmaker: Red-Moon Pact
◎年  代 2024
◎产  地 中国大陆
◎类  别 喜剧 / 奇幻
◎语  言 汉语普通话
◎IMDb链接 https://www.imdb.com/title/tt21388150/
◎豆瓣链接 https://movie.douban.com/subject/26759937/
◎导  演 麦贯之 Kun Chi Mak
       杜林 Jason Du
◎演  员 杨幂 Mi Yang
       龚俊 Jun Gong
       郭晓婷 Xiaoting Guo
       魏哲鸣 Zheming Wei
       胡连馨 Lianxin Hu
       温峥嵘 Zhengrong Wen
       祝绪丹 Xudan Zhu
       杨仕泽 Shize Yang
       陈瑶 Yao Chen
       茅子俊 Zijun Mao
       陈都灵 Duling Chen
       张凌赫 Linghe Zhang
       范明 Ming Fan
       梁超 Chao Liang
       黄志玮 Jerry Huang
       李宇皓  Yuhao Li
       洪潇 Xiao Hong
       冯筱童 Xiaotong Feng
       於薇妮 Winnie
       王晓赟子 Xiaoyunzi Wang

◎简  介
    讲述了人与妖冲突不断的世界中,涂山狐族心怀大义的大当家涂山红红(杨幂 饰)一心冀望两方的平等和和平,为此,她携手人族东方家族遗孤东方月初(龚俊 饰),开启促成缔结人和妖之间的情缘任务,以此抵抗侵蚀庇护涂山上下的苦情树的暗黑力量,瓦解挑拨人和妖之间矛盾的暗黑势力。

[电视剧] 狐妖小红娘·月红篇[全36集][国语音轨/简繁英字幕].2024.2160p.WEB-DL.H265.DDP5.1.Atmos-ColorWEB

##### MediaInfo ######
General
Unique ID                                : 271063203001117323538702338156130026844 (0xCBECDFBB10A9EAD20A250608DD5D455C)
Complete name                            : 狐妖小红娘月红篇.Fox.Spirit.Matchmaker.Red-Moon.Pact.S01E01.2024.2160p.WEB-DL.H265.DDP5.1.Atmos-ColorWEB.mkv
Duration                                 : 44 min 46 s
Overall bit rate                         : 4 712 kb/s

Video
ID                                       : 1
Format                                   : HEVC
Format/Info                              : High Efficiency Video Coding
Format profile                           : Main@L5@Main
Codec ID                                 : V_MPEGH/ISO/HEVC
Duration                                 : 44 min 46 s
Bit rate                                 : 4 067 kb/s
Width                                    : 3 840 pixels
Height                                   : 1 608 pixels
Display aspect ratio                     : 2.40:1
Frame rate mode                          : Constant
Frame rate                               : 25.000 FPS
Color space                              : YUV
Chroma subsampling                       : 4:2:0
Bit depth                                : 8 bits
Bits/(Pixel*Frame)                       : 0.026
Stream size                              : 1.27 GiB (86%)
Default                                  : Yes
Forced                                   : No

Audio #1
ID                                       : 2
Format                                   : E-AC-3 JOC
Format/Info                              : Enhanced AC-3 with Joint Object Coding
Commercial name                          : Dolby Digital Plus with Dolby Atmos
Codec ID                                 : A_EAC3
Duration                                 : 44 min 46 s
Bit rate mode                            : Constant
Bit rate                                 : 448 kb/s
Channel(s)                               : 6 channels
Channel layout                           : L R C LFE Ls Rs
Sampling rate                            : 48.0 kHz
Frame rate                               : 31.250 FPS (1536 SPF)
Compression mode                         : Lossy
Stream size                              : 143 MiB (10%)
Title                                    : 国语·杜比全景声
Language                                 : Chinese
Service kind                             : Complete Main
Default                                  : Yes
Forced                                   : No
Complexity index                         : 16
Number of dynamic objects                : 15
Bed channel count                        : 1 channel
Bed channel configuration                : LFE

Audio #2
ID                                       : 3
Format                                   : AAC LC
Format/Info                              : Advanced Audio Codec Low Complexity
Codec ID                                 : A_AAC-2
Duration                                 : 44 min 46 s
Bit rate                                 : 192 kb/s
Channel(s)                               : 2 channels
Channel layout                           : L R
Sampling rate                            : 44.1 kHz
Frame rate                               : 43.066 FPS (1024 SPF)
Compression mode                         : Lossy
Stream size                              : 61.5 MiB (4%)
Title                                    : 国语
Language                                 : Chinese
Default                                  : No
Forced                                   : No

Text #1
ID                                       : 4
Format                                   : UTF-8
Codec ID                                 : S_TEXT/UTF8
Codec ID/Info                            : UTF-8 Plain Text
Duration                                 : 39 min 41 s
Bit rate                                 : 43 b/s
Frame rate                               : 0.268 FPS
Count of elements                        : 638
Stream size                              : 12.8 KiB (0%)
Title                                    : 简体中文
Language                                 : Chinese
Default                                  : Yes
Forced                                   : No

Text #2
ID                                       : 5
Format                                   : UTF-8
Codec ID                                 : S_TEXT/UTF8
Codec ID/Info                            : UTF-8 Plain Text
Duration                                 : 39 min 41 s
Bit rate                                 : 43 b/s
Frame rate                               : 0.268 FPS
Count of elements                        : 638
Stream size                              : 12.8 KiB (0%)
Title                                    : 繁体中文
Language                                 : Chinese
Default                                  : No
Forced                                   : No

Text #3
ID                                       : 6
Format                                   : UTF-8
Codec ID                                 : S_TEXT/UTF8
Codec ID/Info                            : UTF-8 Plain Text
Duration                                 : 41 min 40 s
Bit rate                                 : 53 b/s
Frame rate                               : 0.279 FPS
Count of elements                        : 698
Stream size                              : 16.4 KiB (0%)
Title                                    : 英文
Language                                 : English
Default                                  : No
Forced                                   : No

Text #4
ID                                       : 7
Format                                   : UTF-8
Codec ID                                 : S_TEXT/UTF8
Codec ID/Info                            : UTF-8 Plain Text
Duration                                 : 39 min 41 s
Bit rate                                 : 72 b/s
Frame rate                               : 0.268 FPS
Count of elements                        : 638
Stream size                              : 21.1 KiB (0%)
Title                                    : 阿拉伯文
Language                                 : Arabic
Default                                  : No
Forced                                   : No

Text #5
ID                                       : 8
Format                                   : UTF-8
Codec ID                                 : S_TEXT/UTF8
Codec ID/Info                            : UTF-8 Plain Text
Duration                                 : 41 min 40 s
Bit rate                                 : 71 b/s
Frame rate                               : 0.279 FPS
Count of elements                        : 698
Stream size                              : 21.8 KiB (0%)
Title                                    : 印尼文
Language                                 : Indonesian
Default                                  : No
Forced                                   : No

Text #6
ID                                       : 9
Format                                   : UTF-8
Codec ID                                 : S_TEXT/UTF8
Codec ID/Info                            : UTF-8 Plain Text
Duration                                 : 41 min 40 s
Bit rate                                 : 66 b/s
Frame rate                               : 0.279 FPS
Count of elements                        : 698
Stream size                              : 20.3 KiB (0%)
Title                                    : 马来文
Language                                 : Malay
Default                                  : No
Forced                                   : No

Text #7
ID                                       : 10
Format                                   : UTF-8
Codec ID                                 : S_TEXT/UTF8
Codec ID/Info                            : UTF-8 Plain Text
Duration                                 : 41 min 40 s
Bit rate                                 : 77 b/s
Frame rate                               : 0.279 FPS
Count of elements                        : 698
Stream size                              : 23.5 KiB (0%)
Title                                    : 日文
Language                                 : Japanese
Default                                  : No
Forced                                   : No

Text #8
ID                                       : 11
Format                                   : UTF-8
Codec ID                                 : S_TEXT/UTF8
Codec ID/Info                            : UTF-8 Plain Text
Duration                                 : 41 min 40 s
Bit rate                                 : 61 b/s
Frame rate                               : 0.279 FPS
Count of elements                        : 698
Stream size                              : 18.8 KiB (0%)
Title                                    : 韩文
Language                                 : Korean
Default                                  : No
Forced                                   : No

Text #9
ID                                       : 12
Format                                   : UTF-8
Codec ID                                 : S_TEXT/UTF8
Codec ID/Info                            : UTF-8 Plain Text
Duration                                 : 41 min 40 s
Bit rate                                 : 65 b/s
Frame rate                               : 0.279 FPS
Count of elements                        : 698
Stream size                              : 20.0 KiB (0%)
Title                                    : 西班牙文
Language                                 : Spanish
Default                                  : No
Forced                                   : No

Text #10
ID                                       : 13
Format                                   : UTF-8
Codec ID                                 : S_TEXT/UTF8
Codec ID/Info                            : UTF-8 Plain Text
Duration                                 : 41 min 40 s
Bit rate                                 : 158 b/s
Frame rate                               : 0.279 FPS
Count of elements                        : 698
Stream size                              : 48.3 KiB (0%)
Title                                    : 泰文
Language                                 : Thai
Default                                  : No
Forced                                   : No

Text #11
ID                                       : 14
Format                                   : UTF-8
Codec ID                                 : S_TEXT/UTF8
Codec ID/Info                            : UTF-8 Plain Text
Duration                                 : 41 min 40 s
Bit rate                                 : 84 b/s
Frame rate                               : 0.279 FPS
Count of elements                        : 698
Stream size                              : 25.7 KiB (0%)
Title                                    : 越南文
Language                                 : Vietnamese
Default                                  : No
Forced                                   : No

Text #12
ID                                       : 15
Format                                   : UTF-8
Codec ID                                 : S_TEXT/UTF8
Codec ID/Info                            : UTF-8 Plain Text
Duration                                 : 41 min 40 s
Bit rate                                 : 60 b/s
Frame rate                               : 0.279 FPS
Count of elements                        : 698
Stream size                              : 18.5 KiB (0%)
Title                                    : 葡萄牙文
Language                                 : Portuguese
Default                                  : No
Forced                                   : No


点击图片可查看大图

软字幕无法在截图上展现,HDR版本/杜比视界版本截图会出现颜色异常,请使用支持的设备播放!


部分资源为软字幕,移动端推荐播放器:MxPlayer,nPlayer,infuse ,其他播放器请自行尝试。

部分资源为软字幕,电脑端推荐播放器:PotPlayer,完美解码,KMPLAYER,其他播放器请自行尝试。

下载端推荐纯BT下载软件:qBittorrent,Bitcomet,uTorrent ,其他下载软件请自行尝试。不支持吸血迅雷。

夸克云:https://pan.quark.cn/s/41c3d9ae18bd

UC云:https://drive.uc.cn/s/91f0e674b4e94

VIP专属内容
本站VIP 免费查看
开通会员
开通本站VIP可查看该内容

本资源为赞助会员资源,加入赞助会员畅享全站资源无限制下载!

升级会员时遇到问题的可以复制支付流水到后台提交工单处理!站长不定期处理工单!

您需要 登录账户 后才能发表评论

取消回复欢迎 发表评论:

关灯