当前位置:网站首页 > 影音资源 > 动画 > 正文

[高清剧集] 关于我转生变成史莱姆这档事 第二季[全12集][简繁英字幕].2024.2160p.B-Global.WEB-DL.x264.AAC-ZeroTV 14.03GB

作者:CC下载站 日期:2024-06-23 05:11:44 浏览:73 分类:动画



[高清剧集] 关于我转生变成史莱姆这档事 第二季[全12集][简繁英字幕].2024.2160p.B-Global.WEB-DL.x264.AAC-ZeroTV 14.03GB


◎标  题 关于我转生变成史莱姆这档事 第二季
◎译  名 That Time I Got Reincarnated as a Slime Season 2
◎片  名 転生したらスライムだった件 第2期
◎年  代 2021
◎产  地 日本
◎类  别 动画 / 奇幻
◎语  言 日语
◎IMDb评分 7.6/10 (409人评价)
◎IMDb链接 https://www.imdb.com/title/tt10510700/
◎豆瓣评分 7.6/10 (16500人评价)
◎豆瓣链接 https://movie.douban.com/subject/27186493/
◎导  演 中山敦史 Nakayama Atsushi
◎编  剧 笔安一幸 Kazuyuki Fudeyasu
◎演  员 冈咲美保 Miho Okasaki
       丰口惠美 Megumi Toyoguchi
       古川慎 Makoto Furukawa
       千本木彩花 Sayaka Senbongi
       市道真央 Mao Ichimichi
       江口拓也 Takuya Eguchi
       大塚芳忠 Hôchû Ôtsuka
       山本兼平 Kanehira Yamamoto
       泊明日菜 Tomari Asuna
       小林亲弘 Chikahiro Kobayashi
       福岛润 Jun Fukushima
       樱井孝宏 Takahiro Sakurai
       日高里菜 Rina Hidaka
       佐藤元 Gen Satou
       内匠靖明 Takumi Yasuaki
       克里斯汀·麦奎尔 Kristen McGuire
       大卫·马特兰加 David Matranga
       史蒂芬·傅 Stephen Fu
       幸村惠理 Eri Yukimura
       井口裕香 Yuka Iguchi
       樱井浩美 Harumi Sakurai
       江越彬纪 Egoshi Akinori
       佐佐木义人 Sasaki Yoshihito
       伊丽莎白·麦斯威尔 Elizabeth Maxwell
       手冢宏通 Tezuka Hiromichi
       柳田淳一 Yanagita Junichi
       朝井彩加 Ayaka Asai

◎简  介
    主人公利姆露与仰慕他而聚集的众多魔物们所建立的国家<朱拉·坦派斯特联邦国>,经由与邻国的协议及交易,让「人类与魔物共同漫步的国家」这一温柔的理想逐步成形。利姆露身为曾是人类的史莱姆,从根本上拥有「对人类的好意」……但这个世界中却存在着明确的「对魔物的敌意」。                                                                      当这一无理的现实摆在眼前时,利姆露将做出选择。做出「不希望失去什么」的选择——万众期待的转生喜剧突入暴风的新章!

[高清剧集] 关于我转生变成史莱姆这档事 第二季[全12集][简繁英字幕].2024.2160p.B-Global.WEB-DL.x264.AAC-ZeroTV 14.03GB

##### MediaInfo ######
General
Unique ID                                : 108486097104063139288556157497746588006 (0x519DA98C3F1A3074B2E75F8F7CBB0166)
Complete name                            : Tensei.Shitara.Slime.Datta.Ken.S03E01.2024.2160p.WEB-DL.x264.AAC-ZeroTV.mkv
Duration                                 : 24 min 41 s
Overall bit rate                         : 6 239 kb/s

Video
ID                                       : 1
Format                                   : AVC
Format/Info                              : Advanced Video Codec
Format profile                           : [email protected]
Format settings                          : CABAC / 5 Ref Frames
Format settings, CABAC                   : Yes
Format settings, Reference frames        : 5 frames
Codec ID                                 : V_MPEG4/ISO/AVC
Duration                                 : 24 min 40 s
Bit rate                                 : 6 051 kb/s
Width                                    : 3 840 pixels
Height                                   : 2 160 pixels
Display aspect ratio                     : 16:9
Frame rate mode                          : Constant
Frame rate                               : 23.976 (24000/1001) FPS
Original frame rate                      : 23.976 (23976/1000) FPS
Color space                              : YUV
Chroma subsampling                       : 4:2:0
Bit depth                                : 8 bits
Scan type                                : Progressive
Bits/(Pixel*Frame)                       : 0.030
Stream size                              : 1.04 GiB (97%)
Title                                    : Japanese
Language                                 : Japanese
Default                                  : Yes
Forced                                   : No
Color range                              : Limited
Color primaries                          : BT.709
Transfer characteristics                 : BT.709
Matrix coefficients                      : BT.709

Audio
ID                                       : 2
Format                                   : AAC LC
Format/Info                              : Advanced Audio Codec Low Complexity
Codec ID                                 : A_AAC-2
Duration                                 : 24 min 41 s
Bit rate                                 : 186 kb/s
Channel(s)                               : 2 channels
Channel layout                           : L R
Sampling rate                            : 48.0 kHz
Frame rate                               : 46.875 FPS (1024 SPF)
Compression mode                         : Lossy
Stream size                              : 32.8 MiB (3%)
Title                                    : Japanese
Language                                 : Japanese
Default                                  : Yes
Forced                                   : No

Text #1
ID                                       : 3
Format                                   : UTF-8
Codec ID                                 : S_TEXT/UTF8
Codec ID/Info                            : UTF-8 Plain Text
Duration                                 : 24 min 22 s
Bit rate                                 : 80 b/s
Frame rate                               : 0.327 FPS
Count of elements                        : 478
Stream size                              : 14.3 KiB (0%)
Title                                    : Chinese Simplified
Language                                 : Chinese
Default                                  : Yes
Forced                                   : No

Text #2
ID                                       : 4
Format                                   : UTF-8
Codec ID                                 : S_TEXT/UTF8
Codec ID/Info                            : UTF-8 Plain Text
Duration                                 : 24 min 22 s
Bit rate                                 : 80 b/s
Frame rate                               : 0.327 FPS
Count of elements                        : 478
Stream size                              : 14.3 KiB (0%)
Title                                    : Chinese Traditional
Language                                 : Chinese
Default                                  : No
Forced                                   : No

Text #3
ID                                       : 5
Format                                   : UTF-8
Codec ID                                 : S_TEXT/UTF8
Codec ID/Info                            : UTF-8 Plain Text
Duration                                 : 24 min 22 s
Bit rate                                 : 81 b/s
Frame rate                               : 0.248 FPS
Count of elements                        : 362
Stream size                              : 14.5 KiB (0%)
Title                                    : English
Language                                 : English
Default                                  : No
Forced                                   : No

Text #4
ID                                       : 6
Format                                   : UTF-8
Codec ID                                 : S_TEXT/UTF8
Codec ID/Info                            : UTF-8 Plain Text
Duration                                 : 24 min 22 s
Bit rate                                 : 241 b/s
Frame rate                               : 0.338 FPS
Count of elements                        : 494
Stream size                              : 43.1 KiB (0%)
Title                                    : ???????
Language                                 : Thai
Default                                  : No
Forced                                   : No

Text #5
ID                                       : 7
Format                                   : UTF-8
Codec ID                                 : S_TEXT/UTF8
Codec ID/Info                            : UTF-8 Plain Text
Duration                                 : 24 min 22 s
Bit rate                                 : 88 b/s
Frame rate                               : 0.286 FPS
Count of elements                        : 418
Stream size                              : 15.9 KiB (0%)
Title                                    : Bahasa Indonesia
Language                                 : Indonesian
Default                                  : No
Forced                                   : No


附件:


猜你还喜欢

您需要 登录账户 后才能发表评论

取消回复欢迎 发表评论:

关灯