当前位置:网站首页 > 影音资源 > 动画 > 正文

[动画] 史前星球 第二季[全5集][国语配音/中文字幕].Prehistoric.Planet.S02.2023.2160p.WEB-DL.AV1.AAC-ZeroTV 2.63GB

作者:CC下载站 日期:2024-06-17 13:41:03 浏览:105 分类:动画



[动画] 史前星球 第二季[全5集][国语配音/中文字幕].Prehistoric.Planet.S02.2023.2160p.WEB-DL.AV1.AAC-ZeroTV 2.63GB


◎标  题 史前星球 第二季
◎片  名 Prehistoric Planet Season 2
◎年  代 2023
◎产  地 英国 / 美国
◎类  别 动画 / 纪录片 / 历史
◎语  言 英语
◎IMDb评分 8.2/10 (368人评价)
◎IMDb链接 https://www.imdb.com/title/tt26937951/
◎豆瓣评分 9.1/10 (4706人评价)
◎豆瓣链接 https://movie.douban.com/subject/36292415/
◎编  剧 马修·怀特 Matthew Wright
◎演  员 大卫·爱登堡 David Attenborough

◎简  介
    该剧结合了野生动物电影制作技术和最新的古生物学知识,以独一无二的方式揭开古代地球壮观的动物栖息地的面纱。该剧集由 BBC Studios 自然历史部门的知名团队支持下制作。《史前星球》以白垩纪时代的环境为背景,描绘了海岸、沙漠、河流、冰雪世界和森林的场景,展示了鲜为人知且令人惊讶的恐龙生活。

[动画] 史前星球 第二季[全5集][国语配音/中文字幕].Prehistoric.Planet.S02.2023.2160p.WEB-DL.AV1.AAC-ZeroTV 2.63GB

##### MediaInfo ######
General
Complete name                            : 史前星球第二季.Prehistoric.Planet.S02E01.2023.2160p.WEB-DL.AV1.AAC-ZeroTV.mp4
Duration                                 : 38 min 47 s
Overall bit rate mode                    : Variable
Overall bit rate                         : 2 245 kb/s

Video
ID                                       : 1
Format                                   : AV1
Format/Info                              : AOMedia Video 1
Format profile                           : [email protected]
Codec ID                                 : av01
Duration                                 : 38 min 47 s
Bit rate                                 : 2 045 kb/s
Width                                    : 3 840 pixels
Height                                   : 2 160 pixels
Display aspect ratio                     : 16:9
Frame rate mode                          : Variable
Frame rate                               : 23.976 FPS
Minimum frame rate                       : 23.256 FPS
Maximum frame rate                       : 24.390 FPS
Color space                              : YUV
Chroma subsampling                       : 4:2:0
Bit depth                                : 8 bits
Bits/(Pixel*Frame)                       : 0.010
Stream size                              : 567 MiB (91%)
Color range                              : Limited
Color primaries                          : BT.709
Transfer characteristics                 : BT.709
Matrix coefficients                      : BT.709
Codec configuration box                  : av1C

Audio
ID                                       : 2
Format                                   : AAC LC
Format/Info                              : Advanced Audio Codec Low Complexity
Codec ID                                 : mp4a-40-2
Duration                                 : 38 min 47 s
Bit rate mode                            : Constant
Bit rate                                 : 192 kb/s
Channel(s)                               : 2 channels
Channel layout                           : L R
Sampling rate                            : 48.0 kHz
Frame rate                               : 46.875 FPS (1024 SPF)
Compression mode                         : Lossy
Stream size                              : 54.3 MiB (9%)
Default                                  : Yes
Alternate group                          : 1

Text
ID                                       : 3
Format                                   : Timed Text
Muxing mode                              : sbtl
Codec ID                                 : tx3g
Duration                                 : 38 min 36 s
Bit rate mode                            : Variable
Bit rate                                 : 39 b/s
Frame rate                               : 0.210 FPS
Stream size                              : 11.0 KiB (0%)
Title                                    : 中文(简体)
Language                                 : Chinese
Default                                  : Yes
Forced                                   : No
Alternate group                          : 3



下载端推荐纯BT下载软件:qBittorrent,Bitcomet,uTorrent ,其他下载软件请自行尝试。不支持吸血迅雷。

附件:


猜你还喜欢

您需要 登录账户 后才能发表评论

取消回复欢迎 发表评论:

关灯